(navigation image)
Home Audio Books & Poetry | Community Audio | Computers & Technology | Grateful Dead | Live Music Archive | Music, Arts & Culture | Netlabels | News & Public Affairs | Non-English Audio | Podcasts | Radio Programs | Spirituality & Religion | The Shady Trees
Search: Advanced Search
Anonymous User (login or join us)
Upload

Listen to audio

item image
Run time: 57:58

Stream (help[help])

VBR M3U
MP3 via M3U

Play / Download (help[help])

VBR ZIP

Ogg Vorbis

Lossless zip


All Files: HTTPS Torrent (2/0)

Resources

Bookmark

Jonathan SegelJonathan Segel Live at Pappy And Harriet's Pioneertown Palace on 2008-09-11 (September 11, 2008)

something has gone horribly wrong 8-p
Prefer flash? · Embed · Questions/Feedback?


Collection: JonathanSegel
Band/Artist: Jonathan Segel
Date: September 11, 2008 (check for other copies)
Venue: Pappy And Harriet's Pioneertown Palace
Location: Pioneertown CA

Source: Neumann KM140's (shock-mounted ORTF pair ~8' from right side PA speaker ~7' high, clamped to beam support) > Beyer MV100 > Sony PCM-D50 (pass through) > Zoom H2 > WAV @24bit/48KHz
Lineage: WAV > Audacity 1.2.6 (Tracking in 1/75 second increments & triangle dither to 16-bit) > AIFF > xACT 1.64 > FLAC level 8
Taped by: TAS aka morst
Transferred by: TAS aka morst
Keywords: Live Concert; Crampout; Cracker; Camper Van Beethoven; Pitown; Jon Segel; Victor Krummenacher; Greg Lisher; Kenny Margolis


Description

01. intro
02. Chain of Circumstance (Jon solo)
03. Still Wishing To Course (Jon solo)
04. Turnaround (Jon solo)
05. If You Really Loved Me (Jon solo)
06. banter - Victor intro
07. I Remember California (Victor solo)
08. Time For Leaving (Victor solo)
09. band intro
10. Bittersweet
11. banter - Southern Heights intro
12. The Southern Heights
13. banter
14. Sunday Morning Blues >
15. Nocturne
16. Jack Of Diamonds
17. banter - don't take my soapbox
18. In Queen City The Girls Are Weeping

Notes

Jon Segel, Victor Krummenacher, Greg Lisher, Kenny Margolis
Thursday, September 11, 2008
Pioneertown, CA, USA
Pappy & Harriet's Pioneertown Palace- indoor stage

4th Annual Cracker Camper Van Beethoven Family Reunion Campout

SHNTOOL:
length expanded size cdr WAVE problems fmt ratio filename
0:49.20 8690684 B --- -- ---xx SKLM2008-09-11t01.flac
2:23.13 25255820 B --- -- ---xx SKLM2008-09-11t02.flac
4:04.33 43119260 B --- -- ---xx SKLM2008-09-11t03.flac
3:56.50 41748044 B --- -- ---xx SKLM2008-09-11t04.flac
3:04.63 32605820 B --- -- ---xx SKLM2008-09-11t05.flac
2:08.19 22623932 B --- -- ---xx SKLM2008-09-11t06.flac
3:16.12 34602668 B --- -- ---xx SKLM2008-09-11t07.flac
3:54.47 41388188 B --- -- ---xx SKLM2008-09-11t08.flac
0:35.49 6289292 B --- -- ---xx SKLM2008-09-11t09.flac
3:10.47 33626588 B --- -- ---xx SKLM2008-09-11t10.flac
0:56.27 9941948 B --- -- ---xx SKLM2008-09-11t11.flac
3:51.03 40755500 B --- -- ---xx SKLM2008-09-11t12.flac
1:21.16 14326076 B --- -- ---xx SKLM2008-09-11t13.flac
5:21.70 56789084 B --- -- ---xx SKLM2008-09-11t14.flac
6:31.17 69012428 B --- -- ---xx SKLM2008-09-11t15.flac
4:47.36 50711516 B --- -- ---xx SKLM2008-09-11t16.flac
1:00.21 10633436 B --- -- ---xx SKLM2008-09-11t17.flac
6:44.53 71390300 B --- -- ---xx SKLM2008-09-11t18.flac
57:57.71 613510584 B 0.4686 (18 files)

-=-=-=-=-=-=-=-=-=-=-=-=-=-=-=-=-=-=-=-=-=-=-=-=-
Soundscape Preservation Society Founded 1991
http://www.iamtypingwithonefinger.com/SPS.html
-=-=-=-=-=-=-=-=-=-=-=-=-=-=-=-=-=-=-=-=-=-=-=-=-

Individual Files

Audio Files Flac VBR MP3 Ogg Vorbis
intro 3.3 MB
1.1 MB
626.8 KB
Chain of Circumstance (Jon solo) 12.0 MB
3.1 MB
1.8 MB
Still Wishing To Course (Jon solo) 19.5 MB
5.3 MB
3.1 MB
Turnaround (Jon solo) 19.1 MB
5.2 MB
3.0 MB
If You Really Loved Me (Jon solo) 14.5 MB
4.1 MB
2.3 MB
banter - Victor intro 8.3 MB
3.1 MB
1.6 MB
I Remember California (Victor solo) 14.1 MB
4.3 MB
2.4 MB
Time For Leaving (Victor solo) 16.5 MB
5.3 MB
2.8 MB
band intro 2.6 MB
839.7 KB
509.0 KB
Bittersweet 16.8 MB
4.1 MB
2.3 MB
banter - Southern Heights intro 4.0 MB
1.2 MB
721.3 KB
The Southern Heights 20.2 MB
4.8 MB
2.9 MB
banter 5.6 MB
1.8 MB
1.0 MB
Sunday Morning Blues 24.7 MB
6.9 MB
3.8 MB
Nocturne 33.2 MB
8.6 MB
4.8 MB
Jack Of Diamonds 21.4 MB
6.3 MB
3.6 MB
banter -don't take my soapbox 4.2 MB
1.4 MB
763.6 KB
In Queen City The Girls Are Weeping 34.2 MB
9.1 MB
5.1 MB
Image Files JPEG JPEG Thumb
Acoustic Quartet photo 43.1 KB
4.3 KB
digital photo - Jonathan on acoustic 139.7 KB
4.1 KB
digital photo - Jonathan on acoustic 140.5 KB
4.8 KB
digital photo - the handoff 155.6 KB
4.7 KB
digital photo - VHK with horns 215.8 KB
3.9 KB
digital photo - the quartet 57.8 KB
3.7 KB
Information FormatSize
SKLM2008-09-11-flac16.ffp Flac FingerPrint 1,008.0 B
SKLM2008-09-11.KM140-flac16.ffp Flac FingerPrint 1,008.0 B
SKLM2008-09-11.KM140-flac16.md5 Checksums 1.0 KB
SKLM2008-09-11-flac16.md5 Checksums 1.0 KB
SKLM2008-09-11.KM140-flac16_files.xml Metadata [file]
SKLM2008-09-11.KM140-flac16_meta.xml Metadata 6.3 KB
SKLM2008-09-11.KM140-flac16_reviews.xml Metadata 685.0 B
Other Files Text Archive BitTorrent
informative textfile 4.6 KB
SKLM2008-09-11.KM140-flac16_archive.torrent 29.1 KB

Write a review
Downloaded 381 times
Reviews
Average Rating: 5.00 out of 5 stars5.00 out of 5 stars5.00 out of 5 stars5.00 out of 5 stars5.00 out of 5 stars

Reviewer: mick dillingham - 5.00 out of 5 stars5.00 out of 5 stars5.00 out of 5 stars5.00 out of 5 stars5.00 out of 5 stars - September 29, 2008
Subject: beautiful
very wonderful semi acoustic gig from segel and krummancher...great vibe..great old numbers from jes...it would be cool if he did the whole of storytelling one day.....two masters surrounded by masterful players what more can you wish for..